Чудо / Wonder (2017) BDRip [H.264 / 720p] [hand made 60fps] [PR] скачать торрент

Производство: США, Гонконг/Lionsgate, Mandeville Films, Participant Media
Жанр: Драма, семейный
Режиссер: Стивен Чбоски

Актеры
Джейкоб Тремблей, Оуэн Уилсон, Изабела Видович, Джулия Робертс, Марк Доцлав, Рукия Бернард, Дженнифер Марч, Мэнди Пэтинкин, Ноа Джуп, Брайс Гейзар

Описание

С одной стороны мальчик Август Пулман такой же как и другие мальчишки его возраста — любит ходить на дни рождения к друзьям, играть в компьютерные игры, фанатеет от Звездных войн, играет со своей собакой, ссорится и мирится со старшей сестрой. А с другой — он совсем не такой как другие мальчишки его возраста. Во-первых, Август никогда не ходил в обычную школу — с первого класса с ним дома занималась мама. Во-вторых, Август перенес 27 операций. Из-за очень редкой, но иногда встречающейся генетической ошибки у Августа нет лица. И вот такой мальчик должен пойти в школу. В первый раз. К обычным детям.

Возраст: 12+ (зрителям, достигшим 12 лет)
Рейтинг MPAA: PG (рекомендуется присутствие родителей)
Релиз от: 60-FPS
Продолжительность: 01: 53: 10
Качество видео: BDRip
Перевод: Дублированный (iTunes)
Субтитры: Русские, английские
Видео : AVC/H.264, 1280x534, 59, 880 fps, ~8000 Kbps
Аудио#1 : AC3 | 5.1 | 384 kbps - Русский
Аудио#2 : AC3 | 5.1 | 640 kbps - Английский
Видео
Идентификатор : 1
Формат : AVC
Формат/Информация : Advanced Video Codec
Профиль формата : [email protected]
Параметр CABAC формата : Да
Параметр ReFrames формата : 5 кадров
Идентификатор кодека : V_MPEG4/ISO/AVC
Продолжительность : 1 ч. 53 м.
Битрейт : 7999 Кбит/сек
Ширина : 1280 пикселей
Высота : 534 пикселя
Соотношение сторон : 2, 40: 1
Режим частоты кадров : Постоянный
Частота кадров : 59, 880 кадров/сек
Частота кадров в оригинале : 59, 940 кадров/сек
Цветовое пространство : YUV
Субдискретизация насыщенности : 4: 2: 0
Битовая глубина : 8 бит
Тип развёртки : Прогрессивная
Бит/(Пиксели*Кадры) : 0.195
Размер потока : 6, 18 Гбайт (87%)
Заголовок : www.60-fps.org
Библиотека кодирования : x264 core 152 r2851 ba24899
Настройки программы : cabac=1/ref=5/deblock=1: -3: -3/analyse=0x3: 0x113/me=hex/subme=8/psy=1/psy_rd=1.00: 0.25/mixed_ref=1/me_range=16/chroma_me=1/trellis=2/8x8dct=1/cqm=0/deadzone=6, 6/fast_pskip=1/chroma_qp_offset=-4/threads=12/lookahead_threads=2/sliced_threads=0/nr=0/decimate=0/interlaced=0/bluray_compat=0/constrained_intra=0/bframes=3/b_pyramid=2/b_adapt=1/b_bias=0/direct=3/weightb=1/open_gop=0/weightp=2/keyint=599/keyint_min=59/scenecut=40/intra_refresh=0/rc_lookahead=50/rc=2pass/mbtree=1/bitrate=7999/ratetol=1.0/qcomp=0.80/qpmin=0/qpmax=69/qpstep=4/cplxblur=20.0/qblur=0.5/vbv_maxrate=62500/vbv_bufsize=78125/nal_hrd=none/filler=0/ip_ratio=1.10/aq=1: 0.50
Default : Да
Forced : Нет
Аудио #1
Идентификатор : 2
Формат : AC-3
Формат/Информация : Audio Coding 3
Расширение режима : CM (complete main)
Параметр Endianness формата : Big
Идентификатор кодека : A_AC3
Продолжительность : 1 ч. 53 м.
Вид битрейта : Постоянный
Битрейт : 384 Кбит/сек
Каналы : 6 каналов
Расположение каналов : Front: L C R, Side: L R, LFE
Частота : 48, 0 КГц
Битовая глубина : 16 бит
Метод сжатия : С потерями
Размер потока : 311 Мбайт (4%)
Заголовок : Дубляж - iTunes
Язык : Russian
Default : Да
Forced : Да
Аудио #2
Идентификатор : 3
Формат : AC-3
Формат/Информация : Audio Coding 3
Расширение режима : CM (complete main)
Параметр Endianness формата : Big
Идентификатор кодека : A_AC3
Продолжительность : 1 ч. 53 м.
Вид битрейта : Постоянный
Битрейт : 640 Кбит/сек
Каналы : 6 каналов
Расположение каналов : Front: L C R, Side: L R, LFE
Частота : 48, 0 КГц
Битовая глубина : 16 бит
Метод сжатия : С потерями
Размер потока : 518 Мбайт (7%)
Заголовок : Original
Язык : English
Default : Нет
Forced : Нет
Текст #1
Идентификатор : 4
Формат : UTF-8
Идентификатор кодека : S_TEXT/UTF8
Идентификатор кодека/Информация : UTF-8 Plain Text
Заголовок : full
Язык : Russian
Default : Нет
Forced : Нет
Текст #2
Идентификатор : 5
Формат : UTF-8
Идентификатор кодека : S_TEXT/UTF8
Идентификатор кодека/Информация : UTF-8 Plain Text
Заголовок : full
Язык : English
Default : Нет
Forced : Нет
Текст #3
Идентификатор : 6
Формат : UTF-8
Идентификатор кодека : S_TEXT/UTF8
Идентификатор кодека/Информация : UTF-8 Plain Text
Заголовок : SDH
Язык : English
Default : Нет
Forced : Нет
Меню
00: 00: 00.000 : en: 00: 00: 00.000
00: 06: 04.489 : en: 00: 06: 04.489
00: 12: 18.446 : en: 00: 12: 18.446
00: 19: 23.496 : en: 00: 19: 23.496
00: 26: 23.165 : en: 00: 26: 23.165
00: 33: 06.234 : en: 00: 33: 06.234
00: 38: 54.666 : en: 00: 38: 54.666
00: 47: 19.378 : en: 00: 47: 19.378
00: 51: 42.891 : en: 00: 51: 42.891
00: 59: 36.865 : en: 00: 59: 36.865
01: 06: 05.336 : en: 01: 06: 05.336
01: 14: 59.411 : en: 01: 14: 59.411
01: 23: 18.034 : en: 01: 23: 18.034
01: 30: 36.097 : en: 01: 30: 36.097
01: 33: 19.510 : en: 01: 33: 19.510
01: 40: 43.996 : en: 01: 40: 43.996

Скриншоты для ознакомления


Все одноименные релизы в Клубе
Время раздачи: 24/7 (до появления первых 3-5 скачавших)
Скачать торрент chudo-wonder-2017-bdrip-h264-720p.torrent
Support: [email protected]